Super Players
Olá!!!

No momento, o forum esta inativo. Mas estarei respondendo as perguntas sobre duvidas dos jogos e de qualquer outro tema no forum www.forum-vp.com

É um forum que é especializado em jogos da Plataforma do Xbox360, PlayStation3 e do PlayStation 2, alem de outros temas diversos.

Estarei a sua espera por lá.
Obrigado.

The Racer


http://superplayers.forumbom.com/h2-forumeiros
 
InícioPortalCalendárioFAQBuscarMembrosGruposRegistrar-seLogin

Compartilhe | 
<
 

 Rodar jogos do PlayStation no Xbox360! [Tutorial]

Ver o tópico anterior Ver o tópico seguinte Ir em baixo 
AutorMensagem
The Racer

AdministradorAdministrador


Mensagens : 807
Pontos de Respeito : 11921
Data de inscrição : 29/08/2010
Idade : 30

Ver perfil do usuário
MensagemAssunto: Rodar jogos do PlayStation no Xbox360! [Tutorial] Sex 01 Out 2010, 12:05 am

Como rodar Jogos do PlayStation no xbox360



Ter aqueles velhos cd de playstation em sua casa para jogar no seu ps acabado é bom. Mas saber como convertê-los para BIN/CUE e poder jogá-los no emulador PCSXBox, é bem melhor. Esta operação não é complicada mas grande parte das pessoas não sabem como faze-la, veremos como acontece.

O q é BIN/CUE:

BIN/CUE são um formato de imagem do cd, que nem as imagens do Nero Burning Rom ou do tão falado ISO. Para criar essas imagens, há varia soluções, mas o uso do CDrwin , em particular porque é um software de trasncodificação bem conhecido. Se você não o tem, pode ser achado em bons sites de download, como:
http://telecharger.01net.com

Ou diretamente no site oficial do programa:
http://www.goldenhawk.com/cdrwin.htm

Vamos lá!

Insira o cd do ps que vc quer converter em BIN/CUE no seu drive de cd, inicie o CDRwin e clique em "Extract Disk/Tracks/Sectors

Arrow 1. Quando a janela de extração se abrir, selecione o drive de cd com o cd do PS em "CD Reader", "Filename Image", coloque o nome q vc quiser sem as extensões , O CDRwin irá colocá-las sozinho.

Arrow 2. Em "Reading Options", deixe com o formato RAW. Se isso não funcionar, seu drive não é compativel, será necessário q vc desmarque esta opção.

Arrow 3. Error Recovery: ABORT

Arrow 4. Jitter Correction: AUTO

Arrow 5. Subcode Analysis: FULL(se não der certo, desmarque, seu drive não é compativel)

Arrow 6. Read Retry Count: 15, para ver se você obtem mais erros na criação do BIN.

Com todas essas opções marcadas, clique em START e pronto!

Após poucos e longos minutos de espera, vc obtem no arquivo onde vc salvou suas duas imagens: nome_do_jogo.BIN e nome_do_jogo.CUE. Nosso exemplo é dinocrisis_tutorial.bin e dinocrisis_tutorial.cue. Abra p arquivo CUE com o bloco de notas(Botão Direito/Abrir Com/Escolher Programa/Bloco de Notas)
vc deverá ver linhas assim:

Código:
FILE "H INOCRISIS_TUTORIAL.BIN" BINARY
TRACK 01 MODE2/2352
INDEX 01 00:00:00
TRACK 02 AUDIO
PREGAP 00:02:00
INDEX 01 36:35:54

O problema do CDRwin, é que está marcado nesse CUE o caminho EXATO para o BIN. então transforme este caminho para manter só o nome do BIN, exemplo:

Código:
FILE "DINOCRISIS_TUTORIAL.BIN" BINARY
TRACK 01 MODE2/2352
INDEX 01 00:00:00
TRACK 02 AUDIO
PREGAP 00:02:00
INDEX 01 36:35:54

Salve o CUE, e vc está em posse de um completo e funcional par BIN/CUE para o seu XBOX

Há duas opções para jogar com o seu cd:

Pelo HD do XBOX: é só colocar os dois arquivos na pasta psxcds do PCSXBox e rodar o BIN no PCSXBox.

Em CD-RW/DVD-R: crie uma ISO do CUE e BIN com o Craxtion por exemplo, e queime tudo pelo nero. Com o seu CD no xbox, rode o PCSXBox(com o PCSXbox no seu HD), e pressione no direcional analogico direito para ver o conteudo do CD.

Espero ter ajudado a aproveitar melhor o seu Xbox 360!
Obrigado
Fonte


------------------------- © Super Players - Todos os direitos reservados -------------------------









Voltar ao Topo Ir em baixo
 

Rodar jogos do PlayStation no Xbox360! [Tutorial]

Ver o tópico anterior Ver o tópico seguinte Voltar ao Topo 
Página 1 de 1

Permissão deste fórum:Você não pode responder aos tópicos neste fórum
Super Players :: Xbox360 :: Console-